Dont Miss To Get Latest Movies and Tv Show Direct In Your Inbox Enter your email address:  

L7 2018 Hindi Dubbed Movie 480p DVDRip 550MB x264 AAC

November 20, 2018 Hindi Dubbed

Visit Our New Site 8xmovies 

Download Here                   Watch Now

L7 2018 Hindi Dubbed Movie 480p DVDRip 550MB x264 AAC


General
Complete name : L7 2018 Hindi Dubbed Movie 480p DVDRip 550MB x264 AAC.mp4
Format : MPEG-4
Format profile : Base Media
Codec ID : isom (isom/iso2/mp41)
File size : 583 MiB
Duration : 2 h 11 min
Overall bit rate mode : Variable
Overall bit rate : 622 kb/s
Encoded date : UTC 1970-01-01 00:00:00
Tagged date : UTC 1970-01-01 00:00:00
Writing application : Lavf52.94.0
Video
ID : 1
Format : MPEG-4 Visual
Format profile : [email protected]
Format settings, BVOP : No
Format settings, QPel : No
Format settings, GMC : No warppoints
Format settings, Matrix : Default (H.263)
Codec ID : mp4v-20
Duration : 2 h 11 min
Bit rate : 458 kb/s
Width : 720 pixels
Height : 480 pixels
Display aspect ratio : 3:2
Frame rate mode : Variable
Frame rate : 29.970 FPS
Minimum frame rate : 7.493 FPS
Maximum frame rate : 29.970 FPS
Standard : NTSC
Color space : YUV
Chroma subsampling : 4:2:0
Bit depth : 8 bits
Scan type : Progressive
Compression mode : Lossy
Bits/(Pixel*Frame) : 0.044
Stream size : 430 MiB (74%)
Writing library : Lavc52.108.0
Encoded date : UTC 1970-01-01 00:00:00
Tagged date : UTC 1970-01-01 00:00:00
Audio
ID : 2
Format : AAC
Format/Info : Advanced Audio Codec
Format profile : LC
Codec ID : mp4a-40-2
Duration : 2 h 11 min
Bit rate mode : Variable
Bit rate : 160 kb/s
Channel(s) : 2 channels
Channel(s)_Original : 6 channels
Channel positions : Front: L C R, Side: L R, LFE
Sampling rate : 24.0 kHz
Frame rate : 23.438 FPS (1024 SPF)
Compression mode : Lossy
Stream size : 150 MiB (26%)
Encoded date : UTC 1970-01-01 00:00:00
Tagged date : UTC 1970-01-01 00:00:00










…::: Torrent Download Link :::…

…::: Download Link :::…

Openload Link

Click Link

Indishare Link

BDupload Link

Download Here                   Watch Now
How to Download ? ]

Comments