Dont Miss To Get Latest Movies and Tv Show Direct In Your Inbox Enter your email address:  

Paisa Vasool (2018) New Released Hindi Dubbed Full Movie

Download Here                   Watch Now

Paisa Vasool (2018) New Released Hindi Dubbed Full Movie

 

 

General
Complete name : Paisa Vasool (2018) New Released Hindi Dubbed Full Movie – Nandamuri Balakrishna, Shriya Saran.mp4
Format : MPEG-4
Format profile : Base Media
Codec ID : isom (isom/iso2/avc1/mp42)
File size : 582 MiB
Duration : 2 h 18 min
Overall bit rate : 585 kb/s
Writing application : Lavf55.33.100

Video
Format : AVC
Format/Info : Advanced Video Codec
Format profile : [email protected]
Format settings, CABAC : Yes
Format settings, RefFrames : 4 frames
Format settings, GOP : M=3, N=25
Codec ID : avc1
Codec ID/Info : Advanced Video Coding
Duration : 2 h 18 min
Bit rate : 384 kb/s
Width : 576 pixels
Height : 352 pixels
Display aspect ratio : 16:10
Frame rate mode : Constant
Frame rate : 25.000 FPS
Color space : YUV
Chroma subsampling : 4:2:0
Bit depth : 8 bits
Scan type : Progressive
Bits/(Pixel*Frame) : 0.076
Stream size : 384 MiB (66%)
Writing library : x264 core 132
Encoding settings : cabac=1 / ref=1 / deblock=1:0:0 / analyse=0x3:0x113 / me=hex / subme=2 / psy=1 / psy_rd=1.00:0.00 / mixed_ref=0 / me_range=16 / chroma_me=1 / trellis=1 / 8x8dct=1 / cqm=0 / deadzone=21,11 / fast_pskip=1 / chroma_qp_offset=0 / threads=4 / lookahead_threads=1 / sliced_threads=0 / nr=0 / decimate=1 / interlaced=0 / bluray_compat=0 / constrained_intra=0 / bframes=2 / b_pyramid=2 / b_adapt=1 / b_bias=0 / direct=1 / weightb=1 / open_gop=0 / weightp=1 / keyint=25 / keyint_min=13 / scenecut=40 / intra_refresh=0 / rc_lookahead=1 / rc=abr / mbtree=1 / bitrate=384 / ratetol=0.1 / qcomp=0.60 / qpmin=1 / qpmax=35 / qpstep=2 / ip_ratio=1.40 / aq=1:1.00

Audio
ID : 2
Format : AAC
Format/Info : Advanced Audio Codec
Format profile : LC
Codec ID : 40
Duration : 2 h 18 min
Bit rate mode : Constant
Bit rate : 192 kb/s
Channel(s) : 2 channels
Channel positions : Front: L R
Sampling rate : 44.1 kHz
Frame rate : 43.066 FPS (1024 SPF)
Compression mode : Lossy
Stream size : 191 MiB (33%)
Default : Yes
Alternate group : 1

 

 

 

 

 

 

 

 

 

 

 

BDupload Link

Indishare Link

Clicknupload Link

Ddl.to Link

Dbupload Link

Download Here                   Watch Now

Comments